Shostakovich Cello Concerto 2

Shostakovich Cello Concerto 2

Shostakovich Cello Concerto 2

Dmitri Shostakovich 1906 - 1975 Cello Concerto No. A good day to see Dimitri Shostakovich Cello Concerto No 2 Op 126 Arr Mstislaw Rostropowitsch Cello Lowest Price information because they received a good feedback from buyer. 126 – Largo 02 – Dimitri Shostakovich: Concerto No. 4 X Track quality 100. 2 in D major, Hob. 2 In A Minor, Op. Shostakovich: Cello Concerto No. The Cello Concerto No. Shostakovich composed this music in July 1959 and Mstislav Rostropovich introduced it at Leningrad on October 4, with Yevgeny Mravinsky conducting. Shostakovich, Dmitri Shostakovich, Konstantin Krimets: Amazon. To boot, Kouzov was privileged to study the first concerto with Rostropovich. Discover releases, reviews, track listings, recommendations, and more about Rostropovich*, Shostakovich* - Shostakovich: Cello Concertos at Discogs. Shostakovich composed these two concertos for cello and orchestra in the space of seven years, and for the same (peerless) performer, cellist Mstislav Rostropovich. 1 is called in full Concerto for Piano, Trumpet and String Orchestra. Concerto for Cello and Orchestra No. A thrilling album from Steven Isserlis couples the ground-breaking Prokofiev Cello Concerto from the 1930s with Shostakovich's eruptive response to it written for Rostropovich in 1959. I made this video for the Boston Philharmonic Orchestra, a nonprofit organization. 101 Join Classical Music Only and discover unknown. Best service. Stream ad-free with Amazon Music Unlimited on mobile, desktop, and tablet. 101 Join Classical Music Only and discover unknown. Allegretto 2. The concerto is scored for solo cello, two flutes (2nd doubling piccolo), two oboes, two clarinets (each doubling B ♭ and A), two bassoons (2nd doubling contrabassoon), one horn, timpani, celesta, and strings. b Mstislav Rostropovich (cello) Leningrad Philharmonic Orchestra/Gennadi Rozhdestvensky. 2/Sonata for Cello and Piano in full in the Spotify app. Shostakovich: Cello Concerto No. Shostakovich composed this powerful work for Rostropovich in 1966, and I have never heard another cellist who could explore the depths of the music in the same way. 1 & 2 - Amazon. When the First Cello Concerto was written with almost Mozartean speed, Stalin. Petersburg Symphony Orchestra. com ♩ Practise your classical instrumental music with high-quality piano accompaniment MP3 tracks available on this website. Applications to be received by December 8th, 2019. Like the first concerto, it was written for Mstislav Rostropovich, who gave the premiere in Moscow under Yevgeny Svetlanov on 25 September 1966 at the composer's 60th birthday concert. 2 from 1966 was composed around the same time as the. He loved it so much, he learnt the whole piece off-by-heart in four days. View credits, reviews, tracks and shop for the 1976 Vinyl release of Shostakovich Cello Concerto No. Dmitri Shostakovich - Festive Overture. Critical Edition. The 2nd cello concerto of Shostakovich is one of the greatest among his late pieces and is by general consent the greater of his two cello concertos. 2 in F Major, Op. Bergen, Norway Haydn: Cello Concerto No. 2 from 1966 was composed around the same time as the. He wrote the work for his friend Mstislav Rostropovich, who committed it to memory in four days and gave the premiere on October 4, 1959, with Yevgeny Mravinsky conducting the Leningrad Philharmonic Orchestra in the Large Hall of the Leningrad Conservatory. : Cello Concerto No. Shostakovich - Cello Concerto No. 01 Cello Concerto No. Shostakovich wrote the work for his friend Mstislav Rostropovich, who committed it to memory in four days and gave the premiere on October 4, 1959, with Yevgeny Mravinsky conducting the Leningrad Philharmonic Orchestra. Shostakovich - Cello Concertos | “Dmitry Kouzov is a true artist” – Mstislav RostropovichNo faint praise, coming as it does from Russia’s greatest-ever cel. Listen to your favorite songs from Shostakovich: Cello Concertos Nos. 107 in E-flat Major: IV. Tracklist: Dmitri SHOSTAKOVICH (1906 – 1975). It is Rostropovich’s world-premiere performance of the Cello Concerto No. 1 (classical music album) - Play streams in full or download MP3 from Classical Archives (classicalarchives. This is most noticeable in the first movement (Allegretto) of Cello Concerto No. 1 And 2 by Maria Kliegel on Amazon Music. --Wspencer11 (talk to me) 11:52, 2 June 2007 (UTC) Original Article. This 2005 recording of Han-Na Chang performing Shostakovich's Cello Concerto No. Concertos Shostakovich wrote an early concerto for piano, trumpet and strings, and a second piano concerto in 1957 as a vehicle for his son, Maxim. 1 Ryan Michael Hoffman A research project submitted to the Graduate Faculty of JAMES MADISON UNIVERSITY In Partial Fulfillment of the Requirements for the degree of Doctor of Musical Arts School of Music May 2013. Therefore, we believe that a pdf download of The. Born September 25, 1906, Saint Petersburg, Russia. Im Januar 2008 gab die junge Künstlerin drei umjubelte Konzerte in der Münchner Philharmonie mit den Münchner Philharmonikern unter Marc Albrecht. The coupling of these two works is unique. That's brilliantly evident in this superb pairing of the two Shostakovich Cello Concertos. 126 (1966), is one of Shostakovich’s most enigmatic scores, a quasi-symphony written between the Thirteenth and Fourteenth Symphonies, featuring little extroverted. 2 in D Major, Hob. 2 in G Major Op. Shostakovich arranged concert suites from many of his film and theatre scores. 1 in E-Flat Major, Op. [First Draft]. A concerto (from the Italian: concerto, plural concerti or, often, the anglicised form concertos) is a musical composition usually composed in three parts or movements, in which (usually) one solo instrument (for instance, a piano, violin, cello or flute) is accompanied by an orchestra or concert band. Discover little-known secrets and interesting discorse on its history, creation, and performance. Both of Shostakovich's fiddle concertos and the 2d cello concerto are comfortably playable by any high-level soloist. 1 in C major, Hob. Buy download online. 30 I-Catalogue Number I-Cat. Martin in the Fields led by Marriner (London/Decca), the Walton Concerto with Rattle and the City of Birmingham Symphony Orchestra (EMI), and the Donald Erb Concerto with. Concerto for 2 Cellos in G minor, RV 531 (Vivaldi, Antonio) Concerto for 2 Cellos in G minor Cello Concerto in E minor, RV 787 (incomplete, dedicated to. 107: Cadenza 04 Cello Concerto No. Enjoy millions of the latest Android apps, games, music, movies, TV, books, magazines & more. Print and download in PDF or MIDI Concerto No. Skip navigation Sign in. The dark-hued. 14 I-Catalogue Number I-Cat. Op 65--March (arr Piatigorsky) (b) Shostakovich Cello Concerto No 1, Op 107 (c) Steven Isserlis VC (a)(c) Frankfurt Radio Symphony Orchestra / Paavo Jarvi. 0 % Test CRC 91A25D1A Copy CRC 91A25D1A. minor was arranged by Schumann from his Cello. The solo part of the Cello Concerto in C major is very virtuosic at times, although Haydn does not allow virtuosity to overwhelm his melodic and harmonic invention. Dimitri Shostakovich: Cello Concerto No. Best service. 4 items available. 1; Britten: Cello Symphony (CD, Jan-2012, Haenssler) at the best online prices at eBay!. Died August 9, 1975, Moscow, Russia. From November 21-23, Alisa and the Philharmonic join forces for Saint-Saëns’s First Cello Concerto, under the direction of Jakub Hrůša. tv and can be viewed in full here. What is the best and cleanest-sounding recording of Shostakovich's "Cello Concerto No. 2 the greater of the pair. 107 in E-flat Major: II. 30 I-Catalogue Number I-Cat. Original: Shostakovich. The adage that you wait an hour for a bus and two come along at the same time seems to hold good as far as outstanding recordings of Shostakovich's Second Cello Concerto are concerned. Artistic Influence, Stylistic Irony, and Musical Reference in Dmitri Shostakovich‟s Cello Concerto No. 1的话题 · · · · · · ( 全部 条) 什么是话题 无论是一部作品、一个人,还是一件事,都往往可以衍生出许多不同的话题。. (1975/2015)SACD + Hi-Res available for download on site losslessalbums. Shostakovich: Cello Concerto No. View credits, reviews, tracks and shop for the 1979 Vinyl release of Shostakovich • Cello Concerto No. This work is featured in "Fantasia 2000" in "The Steadfast Tin Soldier", by Disney. Piano Concertos no. Available with an Apple Music subscription. Find many great new & used options and get the best deals for Shostakovich: Cello Concerto No. Channel: CCSSA25308. 2, written in 1957 for his son Maxim's 19th birthday. 107 in E-flat Major: I. Find album reviews, stream songs, credits and award information for Shostakovich: Cello Concerto Nos. Largo - $-1 on iTunes. It was featured in a listing at the Boston Phoenix. There was a great artistic friendship between Mravinsky and Shostakovich, and Mravinsky became the first and the most renowned interpreter of Shostakovich’s works. 2nd movement from the Shostakovich cello sonata. Full concert here http://ow. Music for Children. Try it free. The Cello Concerto No. : Symphony for Cello and Orchestra (Moser, West German Radio Symphony, Inkinen)》,更多Johannes Moser相关专辑下载、在线试听,尽在网易云音乐. The insolent Sonata op. 2, Opus 126, was written by Dmitri Shostakovich in the spring of 1966 in the Crimea. 40, was one of Dmitri Shostakovich's early works, composed in 1934 just prior to the censure by Soviet authorities of his music, notably the opera Lady Macbeth of Mtsensk, which was deemed too bourgeois and decadent for the Soviet people. Here is Dmitri Shostakovich’s ferocious First Cello Concerto (written in 1959 and dedicated to Mstislav Rostropovich) from a 1983 recording with the Philadelphia Orchestra and conductor Eugene Ormandy. 1 in E-flat, Opus 107 for Cello and Piano Sikorski Edition - Revised 2017 Composed by Dmitri Shostakovich in 1959, the Cello Concerto Number 1 was written for cellist Mstislav Rostropovich. 07 postage; Shostakovich: Concerto No 1,Symphony for Hair Bows 1/Dmitri. Compared to the first Cello Concerto , Op. Op 65--March (arr Piatigorsky) (b) Shostakovich Cello Concerto No 1, Op 107 (c) Steven Isserlis VC (a)(c) Frankfurt Radio Symphony Orchestra / Paavo Jarvi. 2 in G minor op. Shop the World's Largest Sheet Music Selection today at Sheet Music Plus. When the First Cello Concerto was written with almost Mozartean speed, Stalin. Enjoy millions of the latest Android apps, games, music, movies, TV, books, magazines & more. Shostakovich Cello Concerto Posted by Rich Rodriguez at 4:17 PM. Allegro con moto $0. dmitri shostakovich violin concerto no 1 in a. Allegretto Mstislav Rostropovich, cello Seiji Ozawa, conductor Boston Symphony Orchestra. 2 is reticent, ambiguous, and full of gestures that hint at hidden purposes. Listen to Cello Concerto No. The 2nd cello concerto of Shostakovich is one of the greatest among his late pieces and is by general consent the greater of his two cello concertos. Shostakovich: Cello Concerto No. The Cello Concerto No. 2 in G major, Op. 0 % Test CRC F24E93B3 Copy CRC F24E93B3 Accurately ripped (confidence 1) [621B2F76] (AR v2) Copy OK Track 5 Filename C:\FLACs\Shostakovich - Cello Concertos [Capuçon]\05 - Cello Concerto No. And as soon as the First appeared in 1959, it immediately entered the international repertory as one of the strongest and most effective concertos ever written for this instrument. 2 - Animato Strings Get 10% to 25% off on few of our products and don’t forget to apply the correct coupon code during checkout. Prokofiev Cello Concerto, Op 58 (a). 107: Moderato 03 Cello Concerto No. The dialogue between the cello soloist and the french horn player begins in the first movement and continues through till the end of the piece. Exclusive discount for Prime members. The concerto is scored for solo cello, two flutes (2nd doubling piccolo), two oboes, two clarinets (each doubling B ♭ and A), two bassoons (2nd doubling contrabassoon), one horn, timpani, celesta, and strings. Find many great new & used options and get the best deals for Dmitry Shostakovich - Shostakovich: Cello Concerto No. Shostakovich: Cello Concertos. VIIb/2, Op. Allegro con molto Reviews: Classicstoday (Cello Concerto) We are fortunate that the premiere recording of Shostakovich's Cello Concerto No. Mark Buecker. 2 [With score] the posthumously alleged Memoirs of Dmitri Shostakovich. 126 – Allegretto 03 – Dimitri Shostakovich: Concerto No. Cello Concerto No. 1 in E-flat major, Opus 107, was composed in 1959 by Dmitri Shostakovich. Johannes Moser's performance on this album of modern works for cello and orchestra is impressive, as is the playing of Kodansha Manga: Buy 2, Get the 3rd Free Buy. Shostakovich - Cello Concerto No. The two concertos are, in Weilerstein’s own words, “like apples and oranges,” so different are they. The Violin Concerto No. Anytime, anywhere, across your devices. 2 - Glazounov Chant du Ménestrel on Discogs. 30 I-Catalogue Number I-Cat. 126 (1966), is one of Shostakovich’s most enigmatic scores, a quasi-symphony written between the Thirteenth and Fourteenth Symphonies, featuring little extroverted. [SACD-R][OF] Shostakovich /Шостакoвич - Cello Concerto No. Shostakovich’s spiky, brilliant concerto is a powerhouse work. Shostakovich wrote the work for his friend Mstislav Rostropovich, who committed it to memory in four days and gave the premiere on October 4, 1959, with Yevgeny Mravinsky conducting the Leningrad Philharmonic Orchestra in the Large Hall of the Leningrad Conservatory. 126 - Cello/Piano sheet music - Cello, Piano sheet music by Dmitri Shostakovich: Sikorski. 1 in E flat major, Op. 2 crack little krishna. Then Dan Kellett sent me the first movement of the Shostakovich. Concerto for Cello and Orchestra No. Elgar Cello Concerto (2) Emanuel Feuermann (1) Erich Wolfgang Korngold (1). Listen to your favorite songs from Shostakovich: Cello Concertos Nos. Cello Concerto N0. It is lightly scored for double winds, piccolo, contrabassoon, a single horn (no other brass), timpani, celesta, and strings. Shostakovich cello concerto 1 imslp keyword after analyzing the system lists the list of keywords related and the list of websites with related content, in addition you can see which keywords most interested customers on the this website. Cello Concertos Nos. View credits, reviews, tracks and shop for the 2015 Vinyl release of Shostakovich Cello Concerto No. 107 sheet music - cello and piano accompaniment sheet music by Dmitri Shostakovich (1906-1975): International Music Company. Boston Symphony Orchestra / Seiji Ozawa. 40, was one of Dmitri Shostakovich's early works, composed in 1934 just prior to the censure by Soviet authorities of his music, notably the opera Lady Macbeth of Mtsensk, which was deemed too bourgeois and decadent for the Soviet people. 1 in E-flat major, Opus 107, was composed in 1959 by Dmitri Shostakovich. 2; Cello Sonata (classical music album) - Play streams in full or download MP3 from Classical Archives (classicalarchives. Shostakovich: Cello Concertos Nos. Discover more music, concerts, videos, and pictures with the largest catalogue online at Last. Shostakovich wrote the work for his friend Mstislav Rostropovich, who committed it to memory in four days and gave the premiere on October 4, 1959, with Yevgeny Mravinsky conducting the Leningrad Philharmonic Orchestra in the Large. Repertoire List. Shostakovich - Cello Concertos No. The Cello Concerto No. Among such personages is Mstislav Rostropovich, the great maestro of the cello, who studied and successfully collaborated with Dmitri Shostakovich while still a student at the Moscow Conservatory and who later gave the premiere performances of his Cello Concertos. Here are two masterpieces for cello by Shostakovich, written 25 years apart. 126 DSCH Series Hardcover Composed by Dmitri Shostakovich and receive free shipping on your order and the guaranteed lowest price. Shostakovich's Cello Concerto No. Dmitri Shostakovich - Composer style: Modern - Born: September 25, 1906 in Saint Petersburg, Russia - Followed by 1588 users - Top Work: Symphony No. It was dedicated to David Oistrakh; first written between 1947 to 1948. They are here reunited, in front of the Oxford Philharmonic Orchestra, in a performance of what has become a true modern classic: Dmitri Shostakovich’s Cello Concerto No. Free Download Tim Hugh Shostakovich Cello Concerto No 2 Op 126 MP3, Size: 48. Jul 18, 2008 · It makes perfect sense to pair Shostakovich's two cello concertos, both of them composed for Rostropovich, though in fact the coupling is less common on disc than you might expect. Shostakovich: Cello Concerto n. The piano concertos are performed with the New York Philharmonic conducted by Leonard Bernstein. 07 postage; Shostakovich: Concerto No 1,Symphony for Hair Bows 1/Dmitri. 126 - Britten: Third Suite for Cello Solo, Op. Discover releases, reviews, track listings, recommendations, and more about Shostakovich*, Glazounov*, Mstislav Rostropovich, Boston Symphony Orchestra, Seiji Ozawa - Shostakovich Cello Concerto No. com), the largest and best organized classical music site on the web. Yellow Brick Cinema - Relaxing Music Recommended for you. Exclusive discount for Prime members. 11 Dmitri Shostakovich Cello Concerto 1959 Play. The first performance was given in Moscow at the composer's 60th birthday concert by soloist Mstislav Rostropovich - under the baton of Maestro Yevgeny Svetlanov. Listen on Apple Music. Shostakovich Cello Concerto n 2. 2]: The variety of moods and the composer's brilliant orchestration make this a very powerful work. Largo 14:36: 6. 1 and 2 composed by Dmitri Shostakovich. At the same time, its wildly difficult writing for the solo cello the Second Concerto is - just as in the First - a tribute to the artistry of Shostakovich's friend Mstislav Rostropovich. Guy’s recording of Howells’ haunting Cello Concerto is released on 7 June. If you're looking for an exceptional recording of Shostakovich's two cello concertos, this is the one to own. Russian Dmitri Shostakovich wrote the work for his friend Mstislav Rostropovich and ir is widely considered to be one of the most difficult concerted works for cello. Lyrics to 'Dmitri Shostakovich, Cello Concerto No. For You Explore. Shostakovich: Cello Concertos Nos. 1 in A minor for Violin and Orchestra, Opus 77(99) Shostakovich: Symphony No. 1 in E flat Op. I am looking for the best performance of Shostakovich's Cello concerto no. Britten: Cello Symphony / Cello Suite no. IKD 4 Key A minor Movements/Sections Mov'ts/Sec's: 3 movements. Shostakovich: Cello Concerto n. 1" as performed by Rostropovich? I have the recording with Rostropovich from 1956 - with Ormandy as the conductor - but there's quite a lot of "hiss", and the music sounds somewhat distant. 102, by Dmitri Shostakovich was composed in 1957 for his son Maxim's 19th birthday. Shostakovich Piano Concerto No. UK 12" Vinyl LP. I also want to know if it would be a terrible idea to add a small percussion reduction to go along with the piano reduction. The masterclass was recorded for medici. Other Titles: Concertos,. Videos, Photos, CDs, DVDs, BluRays, Tickets, Tourdaten, Merchandise, RSS News Feeds. Shostakovich: Cello Concertos Nos 1 & 2 CHAN 10040. Unlike the "First Concerto," the "Second" is heard much less frequently in live performance and does not make album programs as often, either. 1 in E-flat major, Op. Shostakovich - Cello Concertos | “Dmitry Kouzov is a true artist” – Mstislav RostropovichNo faint praise, coming as it does from Russia’s greatest-ever cel. Yellow Brick Cinema - Relaxing Music Recommended for you. Play full-length songs from Shostakovich: Cello Concertos by Truls Mork on your phone, computer and home audio system with Napster Cello Concerto No. Shostakovich's first cello concerto is currently on the eleventh tier of the Talk Classical community's favorite and most highly recommended works, making it the second-highest ranked cello concerto on our list. Shostakovich wrote his First Cello Concerto for the great Russian cellist Mstislav Rostropovich. The Cello Concerto No. Music for Children. SHOSTAKOVICH CELLO CONCERTOS 1 + 2 is still factory sealed. It was premiered at the composer’s sixtieth birthday concert with Mstislav Rostropovich as soloist. 1 in E-flat Major, Op. Stream ad-free or purchase CD's and MP3s now on Amazon. First movement of the Shostakovich cello concerto op. The works in question are Dmitri Shostakovich’s cello concertos Nos 1 and 2, both of which were written for Mstislav Rostropovich. Shostakovich Cello Concerto Posted by Rich Rodriguez at 4:17 PM. Do you want to remove all your recent searches? All recent searches will. 1 in E flat major, Op. 1" and the "First Cello Concerto. Cello Solo sheet music. 14 I-Catalogue Number I-Cat. 126 - Britten: Third Suite for Cello Solo, Op. 126: Concerto No. Shostakovich - Cello concerto n°2 Op. 107 sheet music - cello and piano accompaniment sheet music by Dmitri Shostakovich (1906-1975): International Music Company. I don't drop a lot of remarks, but i did some searching and wound up here "Free Cello Sheet Music". 2 accurately and beautifully arranged for 2 Pianos. Dmitri Shostakovich 1906 - 1975 Cello Concerto No. 2 - Glazounov Chant du Ménestrel on Discogs. Pieter Wispelwey - Shostakovich: Concerto No. Petersburg, Russia. 40 for Cello (Sikorski) $69. What a disgrace to such a brilliant concerto. 07 postage; Shostakovich: Concerto No 1,Symphony for Hair Bows 1/Dmitri. Piano Concertos no. 0 % Test CRC F24E93B3 Copy CRC F24E93B3 Accurately ripped (confidence 1) [621B2F76] (AR v2) Copy OK Track 5 Filename C:\FLACs\Shostakovich - Cello Concertos [Capuçon]\05 - Cello Concerto No. Shostakovich: Cello Concertos Nos. 107 ; Cello concerto no. 19 in C sharp minor, Op. [First Draft]. Like the first concerto, it was written for Mstislav Rostropovich, who gave the premiere in Moscow under Yevgeny Svetlanov on 25 September 1966 at the composer's 60th birthday concert. 107: Allegro con moto 05 Cello Sonata No. Dmitri Shostakovich: Concerto No. Alisa returns with Shostakovichs cello masterworks Concertos 1 & 2. Compared to the first Cello Concerto , Op. 107 in E-flat Major: II. Shostakovich's last major work before his first heart-attack -- his first intimation of his own mortality -- was the Second Cello Concerto. Dimitri Shostakovich: Cello Concerto No. In both cases, Chang is accompanied by Antonio Pappano either leading the London Symphony Orchestra or playing the piano. Complete your. Torrent Contents. 102Full description. Died August 9, 1975, Moscow, Russia. Parallel zur neuen CD "Cantabile" erscheint eine weitere Aufnahme mit der Cellistin Sol Gabetta. The Sonata for Cello and Piano in D minor, Op. The young cellist Han-Na Chang seems to be making a specialty of Russian music, following her highly praised Prokofiev disc with a real cornerstone of her instrument's repertoire: the Shostakovich Cello Concerto No. Although written only seven years after the first, Shostakovich's "Second Cello Concerto" could not be more different in content and temperament. The dark-hued. Oistrakh was a champion of both concertos, and he performed the premiere of both of them. Rostropovich // Shostakovich Violin Con #99, Cello Concerto #107. 2, Opus 126, was written by Dmitri Shostakovich in the spring of 1966 in the Crimea. Cadenza 04 Shostakovitch cello concerto No. Concerto for Cello and Orch No. It is lightly scored for double winds, piccolo, contrabassoon, a single horn (no other brass), timpani, celesta, and strings. Petersburg, Russia. Shostakovich Wars best. 126 Mstislav Rostropovich The State Academic Symphony Orchestra of the URSS. He was still working on the piece at the time of the Zhdanov decree, and in the period following the composer's denunciation it could not be performed. Daniel Shafran, Nina Musinyan. Guy’s recording of Howells’ haunting Cello Concerto is released on 7 June. Buy Shostakovich- Cello Concerto No 2 / Tchaikovsky- Rococo Variations Mstislav Rostropovich, Classical, CD Online Now at the Australian based Sanity Movie Store. Dmitrii Shostakovich. Dmitri Shostakovich - Composer style: Modern - Born: September 25, 1906 in Saint Petersburg, Russia - Followed by 1588 users - Top Work: Symphony No. Stream Shostakovich: Concerto No. The works in question are Dmitri Shostakovich’s cello concertos Nos 1 and 2, both of which were written for Mstislav Rostropovich. IVH 8 Key E minor. Do you want to remove all your recent searches? All recent searches will. Shostakovich-Cello Concerto № 1. Cello Concerto No. Sponsored by : LIVE CONCERT AT BYBLOS. Allegro Andante (F major) - Animato - Più moto - Tempo animato - Tempo I più lento. 126 (Cello/Piano) This item is not available anymore with the seller Musicroom UK. Cello Solo sheet music. 2 in G Major for Cello and Orchestra, Op. By Harold Faberman. The recent Wallfisch on Nimbus also is extremely fine, and very different interpretively, but it additionally includes the remaining music for cello and piano, and I can understand many listeners not looking for a cello transcription of the late Viola Sonata. 1 in E-Flat Major, Op. Shostakovich, Dmitri Shostakovich, Konstantin Krimets: Amazon. The Cello Concerto No. It is Rostropovich’s world-premiere performance of the Cello Concerto No. 2 & Britten - Third Suite for Cello Solo - Pieter Wispelwey, Sinfonietta Cracovia, Jurjen Hempel. 2 / Glazounov • Chant Du Ménestrel on Discogs. But when I file this CD, it shall be under Shostakovich, for it is in the composer’s first Cello Concerto that Bailey makes his splash. Shostakovich wrote the work for his friend Mstislav Rostropovich, who committed it to memory in four days and gave the premiere on October 4, 1959, with Yevgeny Mravinsky conducting the Leningrad Philharmonic Orchestra in the Large. Therefore, we believe that a pdf download of The. 1 in E-flat major, Opus 107, was composed in 1959 by Dmitri Shostakovich. 102, by Dmitri Shostakovich was composed in 1957 for his son Maxim's 19th birthday.